<?xml version="1.0" standalone="no"?>
<!DOCTYPE svg PUBLIC "-//W3C//DTD SVG 1.1//EN" "http://www.w3.org/Graphics/SVG/1.1/DTD/svg11.dtd" >
<svg xmlns="http://www.w3.org/2000/svg">
<metadata>Generated by IcoMoon</metadata>
<defs>
<font id="icomoon" horiz-adv-x="1024">
<font-face units-per-em="1024" ascent="960" descent="-64" />
<missing-glyph horiz-adv-x="1024" />
<glyph unicode="&#x20;" horiz-adv-x="512" d="" />
<glyph unicode="&#xe900;" horiz-adv-x="1071" d="M476.771 924.771c199.666 13.278 355.46-61.878 467.376-225.468 108.605-206.743 88.252-399.332-61.064-577.761-127.939-124.994-280.599-169.618-457.982-133.872-231.133 67.546-353.261 221.776-366.385 462.679 9.428 217.043 114.333 366.572 314.716 448.587 34.697 10.24 69.143 18.852 103.339 25.835z" />
<glyph unicode="&#xe901;" horiz-adv-x="1071" d="M504.954 741.578c110.963 8.694 205.688-25.752 284.183-103.339 4.721-17.168-1.541-28.129-18.789-32.881-30.823 26.775-64.489 49.478-100.991 68.11-81.37 34.44-162.788 34.44-244.257 0-35.044-21.006-68.708-43.709-100.991-68.11-11.273 4.217-18.319 12.046-21.138 23.486 29.204 38.979 66.782 67.945 112.734 86.899 29.725 10.931 59.477 19.542 89.248 25.835z" />
<glyph unicode="&#xe902;" horiz-adv-x="1071" d="M514.349 657.028c80.403 7.114 148.513-17.937 204.33-75.156 6.247-23.475-2.367-33.652-25.835-30.532-96.19 87.544-193.264 89.11-291.229 4.697-18.12-11.933-30.646-8.019-37.578 11.743 2.069 12.747 8.332 22.925 18.789 30.532 39.091 31.31 82.932 50.882 131.523 58.716z" />
<glyph unicode="&#xe903;" horiz-adv-x="1071" d="M260.697 506.716c184.765 0.783 369.523 0 554.275-2.349 26.431-4.496 44.436-19.371 54.018-44.624 4.462-91.056 2.894-181.873-4.697-272.44-9.131-15.191-22.443-25.365-39.927-30.532-191.023-3.133-382.043-3.133-573.064 0-26.722 3.227-43.163 18.098-49.321 44.624-3.132 84.55-3.132 169.101 0 253.651 8.958 30.138 28.53 47.362 58.716 51.67z" />
<glyph unicode="&#xe904;" horiz-adv-x="1071" d="M237.211 492.624c197.291 0.783 394.574 0 591.853-2.349 15.294-7.455 25.473-19.198 30.532-35.229 3.133-84.55 3.133-169.101 0-253.651-6.017-17.554-17.76-29.297-35.229-35.229-192.587-3.133-385.174-3.133-577.761 0-17.469 5.933-29.212 17.676-35.229 35.229-3.132 86.115-3.132 172.234 0 258.349 7.828 11.724 16.439 22.683 25.835 32.881z" />
<glyph unicode="&#xe905;" horiz-adv-x="1071" d="M345.248 440.954c28.354 0.658 56.537-0.907 84.55-4.697 0-14.092 0-28.183 0-42.275-4.942-0.7-9.639 0.080-14.092 2.349-12.498 31.307-34.419 40.702-65.761 28.183-25.779-24.083-36.739-53.835-32.881-89.248-3.754-35.765 7.207-65.513 32.881-89.248 49.484-5.209 65.924 15.928 49.321 63.413-4.239 5.641-9.72 9.559-16.44 11.743 20.355 3.133 40.71 3.133 61.064 0-5.643-4.242-9.558-9.719-11.743-16.44-1.566-23.486-3.132-46.972-4.697-70.459-1.566-1.564-3.132-3.133-4.697-4.697-6.167 5.040-13.213 8.173-21.138 9.394-77.32-18.3-116.464 13.016-117.431 93.945-1.181 48.762 19.174 84.776 61.064 108.037z" />
<glyph unicode="&#xe906;" horiz-adv-x="1071" d="M472.073 436.257c30.471 5.421 61.788 6.205 93.945 2.349 45.267-6.67 61.708-32.505 49.321-77.505-5.482-18.005-17.225-29.748-35.229-35.229-19.977-0.939-39.551-3.288-58.716-7.046-3.133-21.922-3.133-43.839 0-65.761 5.702-7.276 12.748-12.753 21.138-16.44-23.486-3.133-46.972-3.133-70.459 0 5.068 4.491 10.545 8.403 16.44 11.743 3.133 57.931 3.133 115.867 0 173.798-4.88 5.684-10.362 10.381-16.44 14.092z" />
<glyph unicode="&#xe907;" horiz-adv-x="1071" d="M692.844 440.954c27.066 1.649 53.68-0.7 79.853-7.046-4.434-12.772-5.998-26.079-4.697-39.927-4.697 0-9.394 0-14.092 0-7.765 33.707-28.118 43.886-61.064 30.532-18.939-21.626-17.375-41.979 4.697-61.064 22.326-11.546 43.464-24.858 63.413-39.927 24.599-57.264 5.81-88.581-56.367-93.945-17.925 3.791-35.934 6.924-54.018 9.394-0.77 12.622 0.014 25.149 2.349 37.578 1.945 2.147 4.293 3.716 7.046 4.697 6.656-15.285 17.615-27.028 32.881-35.229 43.637-7.619 60.078 10.386 49.321 54.018-22.984 18.277-47.254 34.717-72.807 49.321-24.567 39.56-16.741 70.092 23.486 91.596z" />
<glyph unicode="&#xe908;" horiz-adv-x="1071" d="M519.046 426.862c58.077 5.369 79.214-19.681 63.413-75.156-17.779-16.271-38.917-22.537-63.413-18.789 0 31.317 0 62.628 0 93.945z" />
<glyph unicode="&#xe909;" horiz-adv-x="1071" d="M472.073 943.56c-62.2-9.509-121.698-29.081-178.495-58.716-183.411-111.384-267.179-275.005-251.303-490.862 33.091-203.748 146.608-340.752 340.55-411.009 213.466-56.080 392.746-2.062 537.835 162.055 123.012 171.919 138.667 353.547 46.972 544.881-113.96 181.861-279.148 266.412-495.56 253.651zM669.358 619.45c-67.809 41.065-139.837 48.111-216.073 21.138-25.823-10.547-49.309-24.639-70.459-42.275-14.050-10.059-19.531-23.368-16.44-39.927 3.777-6.128 9.257-9.259 16.44-9.394 24.303 17.197 49.355 33.637 75.156 49.321 62.177 27.915 123.242 25.567 183.193-7.046-26.619-28.183-53.234-56.367-79.853-84.55-100.22 0.783-200.428 0-300.624-2.349-30.974-2.785-50.545-19.226-58.716-49.321-3.132-84.55-3.132-169.101 0-253.651 5.542-11.086 11.023-22.044 16.44-32.881-6.072-8.436-13.118-16.267-21.138-23.486-117.899 133.054-150.78 284.93-98.642 455.633 79.099 195.473 224.714 298.813 436.844 310.018 117.098-2.714 218.089-43.424 302.972-122.128-54.901-58.031-111.268-114.398-169.101-169.101zM260.697 154.422c187.896-0.784 375.785 0 563.67 2.349 26.244 6.384 41.12 22.824 44.624 49.321 3.133 84.55 3.133 169.101 0 253.651-9.582 25.252-27.587 40.128-54.018 44.624-67.307 2.348-134.637 3.131-201.982 2.349 18.789 21.921 39.142 42.275 61.064 61.064 9.254-13.214 21.781-18.694 37.578-16.44 14.026 18.322 10.898 33.196-9.394 44.624 53.135 56.268 107.938 111.070 164.404 164.404 57.809-59.207 96.171-129.666 115.083-211.376 34.623-240.701-56.973-413.715-274.789-519.046-142.665-52.083-280.449-41.12-413.358 32.881-24.842 17.004-48.328 35.793-70.459 56.367 11.913 12.706 24.439 24.449 37.578 35.229zM542.532 487.927c-17.225-15.656-34.445-31.317-51.67-46.972-6.449 0.737-12.715-0.047-18.789-2.349 2.555-3.368 5.688-5.717 9.394-7.046-50.104-53.234-101.774-104.904-155.009-155.009-14.272 44.69-11.923 88.534 7.046 131.523 32.897 33.454 60.297 29.541 82.202-11.743 4.453-2.269 9.15-3.049 14.092-2.349 0 14.092 0 28.183 0 42.275-90.584 23.622-139.122-10.822-145.615-103.339 3.54-15.393 5.889-31.049 7.046-46.972 1.991-11.861 7.471-21.255 16.44-28.183-25.052-28.183-51.67-54.803-79.853-79.853-6.123 6.985-11.603 14.815-16.44 23.486-3.132 86.115-3.132 172.234 0 258.349 6.848 11.555 15.459 21.734 25.835 30.532 102.575 3.896 204.349 3.113 305.321-2.349zM598.899 492.624c76.739 0.783 153.459 0 230.165-2.349 9.977-5.27 18.587-12.316 25.835-21.138 7.647-88.942 9.216-178.19 4.697-267.743-6.017-17.554-17.76-29.297-35.229-35.229-184.752-2.349-369.51-3.133-554.275-2.349 21.921 25.050 45.407 48.537 70.459 70.459 20.407-4.105 40.762-2.541 61.064 4.697 7.925-1.221 14.971-4.354 21.138-9.394 6.026 24.224 9.157 49.274 9.394 75.156 2.185 6.722 6.1 12.199 11.743 16.44-4.453 2.269-9.15 3.049-14.092 2.349 18.789 21.922 39.144 42.275 61.064 61.064 0.78-45.432 0-90.84-2.349-136.22-5.895-3.34-11.372-7.253-16.44-11.743 23.486-3.133 46.972-3.133 70.459 0-8.389 3.687-15.435 9.164-21.138 16.44-3.133 21.922-3.133 43.839 0 65.761 19.165 3.758 38.738 6.106 58.716 7.046 33.999 17.168 45.742 44.567 35.229 82.202-15.665 24.379-38.372 35.342-68.11 32.881 15.656 18.789 32.881 36.014 51.67 51.67zM533.138 426.862c42.172 0.892 60.176-19.461 54.018-61.064-1.625-11.029-7.107-19.639-16.44-25.835-16.722-5.81-33.947-8.159-51.67-7.046 0 26.619 0 53.234 0 79.853 3.133 6.261 7.83 10.959 14.092 14.092zM401.615 295.339c7.172-39.809-10.052-57.034-51.67-51.67 15.657 18.789 32.881 36.014 51.67 51.67z" />
<glyph unicode="&#xe90a;" horiz-adv-x="1071" d="M669.358 619.45c-7.83-10.96-17.225-20.355-28.183-28.183-59.951 32.613-121.015 34.961-183.193 7.046-25.801-15.684-50.853-32.124-75.156-49.321-7.184 0.135-12.664 3.267-16.44 9.394-3.090 16.559 2.39 29.868 16.44 39.927 21.15 17.636 44.636 31.728 70.459 42.275 76.236 26.973 148.264 19.928 216.073-21.138z" />
<glyph unicode="&#xe90b;" horiz-adv-x="1071" d="M702.239 595.963c20.292-11.427 23.42-26.302 9.394-44.624-15.797-2.254-28.324 3.227-37.578 16.44 7.83 10.96 17.225 20.355 28.183 28.183z" />
<glyph unicode="&#xe90c;" horiz-adv-x="1071" d="M561.321 506.716c-4.697-7.829-10.959-14.092-18.789-18.789-100.973 5.462-202.746 6.245-305.321 2.349-10.376-8.798-18.987-18.977-25.835-30.532-3.132-86.115-3.132-172.234 0-258.349 4.837-8.671 10.317-16.501 16.44-23.486-1.566-4.697-4.697-7.83-9.394-9.394-5.418 10.837-10.898 21.795-16.44 32.881-3.132 84.55-3.132 169.101 0 253.651 8.17 30.095 27.742 46.537 58.716 49.321 100.196 2.349 200.404 3.131 300.624 2.349z" />
<glyph unicode="&#xe90d;" horiz-adv-x="1071" d="M612.991 506.716c67.344 0.783 134.675 0 201.982-2.349 26.431-4.496 44.436-19.371 54.018-44.624 3.133-84.55 3.133-169.101 0-253.651-3.504-26.497-18.38-42.938-44.624-49.321-187.885-2.349-375.773-3.133-563.67-2.349 1.566 4.697 4.697 7.83 9.394 9.394 184.765-0.784 369.523 0 554.275 2.349 17.469 5.933 29.212 17.676 35.229 35.229 4.519 89.553 2.95 178.801-4.697 267.743-7.248 8.821-15.858 15.867-25.835 21.138-76.706 2.348-153.426 3.131-230.165 2.349 3.133 6.263 7.83 10.96 14.092 14.092z" />
<glyph unicode="&#xe90e;" horiz-adv-x="1071" d="M326.459 276.55c-4.697-7.83-10.96-14.092-18.789-18.789-8.969 6.928-14.45 16.323-16.44 28.183-1.157 15.924-3.506 31.58-7.046 46.972 6.493 92.517 55.031 126.962 145.615 103.339 0-14.092 0-28.183 0-42.275-4.942-0.7-9.639 0.080-14.092 2.349-21.905 41.284-49.305 45.197-82.202 11.743-18.969-42.989-21.318-86.833-7.046-131.523z" />
<glyph unicode="&#xe90f;" horiz-adv-x="1071" d="M490.862 440.954c-1.564-4.697-4.697-7.83-9.394-9.394-3.706 1.329-6.839 3.678-9.394 7.046 6.074 2.302 12.34 3.086 18.789 2.349z" />
<glyph unicode="&#xe910;" horiz-adv-x="1071" d="M547.229 440.954c29.738 2.461 52.445-8.502 68.11-32.881 10.512-37.634-1.231-65.033-35.229-82.202-19.977-0.939-39.551-3.288-58.716-7.046-3.133-21.922-3.133-43.839 0-65.761 5.702-7.276 12.748-12.753 21.138-16.44-23.486-3.133-46.972-3.133-70.459 0 5.068 4.491 10.545 8.403 16.44 11.743 2.349 45.38 3.128 90.788 2.349 136.22 7.83 10.959 17.225 20.353 28.183 28.183 0-26.619 0-53.234 0-79.853 17.723-1.113 34.948 1.235 51.67 7.046 9.333 6.196 14.815 14.806 16.44 25.835 6.158 41.604-11.846 61.957-54.018 61.064 3.133 6.261 7.83 10.959 14.092 14.092z" />
<glyph unicode="&#xe911;" horiz-adv-x="1071" d="M692.844 440.954c27.066 1.649 53.68-0.7 79.853-7.046-4.434-12.772-5.998-26.079-4.697-39.927-4.697 0-9.394 0-14.092 0-7.765 33.707-28.118 43.886-61.064 30.532-18.939-21.626-17.375-41.979 4.697-61.064 22.326-11.546 43.464-24.858 63.413-39.927 24.599-57.264 5.81-88.581-56.367-93.945-17.925 3.791-35.934 6.924-54.018 9.394-0.77 12.622 0.014 25.149 2.349 37.578 1.945 2.147 4.293 3.716 7.046 4.697 6.656-15.285 17.615-27.028 32.881-35.229 43.637-7.619 60.078 10.386 49.321 54.018-22.984 18.277-47.254 34.717-72.807 49.321-24.567 39.56-16.741 70.092 23.486 91.596z" />
<glyph unicode="&#xe912;" horiz-adv-x="1071" d="M429.798 323.523c4.942 0.7 9.639-0.080 14.092-2.349-5.643-4.242-9.558-9.719-11.743-16.44-0.237-25.882-3.369-50.932-9.394-75.156-6.167 5.040-13.213 8.173-21.138 9.394-20.302-7.238-40.657-8.803-61.064-4.697 1.566 4.697 4.697 7.83 9.394 9.394 41.618-5.364 58.841 11.861 51.67 51.67 7.829 10.959 17.223 20.353 28.183 28.183z" />
<glyph unicode="&#xe913;" horiz-adv-x="1071" d="M476.771 929.468c203.992 13.476 361.35-64.811 472.073-234.862 84.55-161.272 84.55-322.546 0-483.817-130.461-195.927-311.305-268.734-542.532-218.422-195.946 64.418-311.029 198.29-345.248 401.615-15.798 232.312 80.496 399.065 288.881 500.257 41.888 15.544 84.163 27.287 126.826 35.229z" />
<glyph unicode="&#xe914;" horiz-adv-x="1071" d="M519.046 840.22c131.297 2.777 241.683-42.629 331.156-136.22 3.119-23.469-7.055-32.081-30.532-25.835-147.423 132.183-308.694 150.972-483.817 56.367-22.969-13.877-43.324-31.1-61.064-51.67-30.235-15.35-41.978-6.738-35.229 25.835 77.581 77.549 170.743 121.39 279.486 131.523z" />
<glyph unicode="&#xe915;" horiz-adv-x="1071" d="M504.954 741.578c110.963 8.694 205.688-25.752 284.183-103.339 4.721-17.168-1.541-28.129-18.789-32.881-30.823 26.775-64.489 49.478-100.991 68.11-81.37 34.44-162.788 34.44-244.257 0-35.044-21.006-68.708-43.709-100.991-68.11-11.273 4.217-18.319 12.046-21.138 23.486 29.204 38.979 66.782 67.945 112.734 86.899 29.725 10.931 59.477 19.542 89.248 25.835z" />
<glyph unicode="&#xe916;" horiz-adv-x="1071" d="M514.349 657.028c80.403 7.114 148.513-17.937 204.33-75.156 6.247-23.475-2.367-33.652-25.835-30.532-96.19 87.544-193.264 89.11-291.229 4.697-18.12-11.933-30.646-8.019-37.578 11.743 2.069 12.747 8.332 22.925 18.789 30.532 39.091 31.31 82.932 50.882 131.523 58.716z" />
<glyph unicode="&#xe917;" horiz-adv-x="1071" d="M260.697 506.716c184.765 0.783 369.523 0 554.275-2.349 26.431-4.496 44.436-19.371 54.018-44.624 4.462-91.056 2.894-181.873-4.697-272.44-9.131-15.191-22.443-25.365-39.927-30.532-191.023-3.133-382.043-3.133-573.064 0-26.722 3.227-43.163 18.098-49.321 44.624-3.132 84.55-3.132 169.101 0 253.651 8.958 30.138 28.53 47.362 58.716 51.67z" />
<glyph unicode="&#xe918;" horiz-adv-x="1071" d="M237.211 492.624c197.291 0.783 394.574 0 591.853-2.349 15.294-7.455 25.473-19.198 30.532-35.229 3.133-84.55 3.133-169.101 0-253.651-6.017-17.554-17.76-29.297-35.229-35.229-192.587-3.133-385.174-3.133-577.761 0-17.469 5.933-29.212 17.676-35.229 35.229-3.132 86.115-3.132 172.234 0 258.349 7.828 11.724 16.439 22.683 25.835 32.881z" />
<glyph unicode="&#xe919;" horiz-adv-x="1071" d="M345.248 440.954c28.354 0.658 56.537-0.907 84.55-4.697 0-14.092 0-28.183 0-42.275-4.942-0.7-9.639 0.080-14.092 2.349-12.498 31.307-34.419 40.702-65.761 28.183-25.779-24.083-36.739-53.835-32.881-89.248-3.754-35.765 7.207-65.513 32.881-89.248 49.484-5.209 65.924 15.928 49.321 63.413-4.239 5.641-9.72 9.559-16.44 11.743 20.355 3.133 40.71 3.133 61.064 0-5.643-4.242-9.558-9.719-11.743-16.44-1.566-23.486-3.132-46.972-4.697-70.459-1.566-1.564-3.132-3.133-4.697-4.697-6.167 5.040-13.213 8.173-21.138 9.394-77.32-18.3-116.464 13.016-117.431 93.945-1.181 48.762 19.174 84.776 61.064 108.037z" />
<glyph unicode="&#xe91a;" horiz-adv-x="1071" d="M472.073 436.257c30.471 5.421 61.788 6.205 93.945 2.349 45.267-6.67 61.708-32.505 49.321-77.505-5.482-18.005-17.225-29.748-35.229-35.229-19.977-0.939-39.551-3.288-58.716-7.046-3.133-21.922-3.133-43.839 0-65.761 5.702-7.276 12.748-12.753 21.138-16.44-23.486-3.133-46.972-3.133-70.459 0 5.068 4.491 10.545 8.403 16.44 11.743 3.133 57.931 3.133 115.867 0 173.798-4.88 5.684-10.362 10.381-16.44 14.092z" />
<glyph unicode="&#xe91b;" horiz-adv-x="1071" d="M692.844 440.954c27.066 1.649 53.68-0.7 79.853-7.046-4.434-12.772-5.998-26.079-4.697-39.927-4.697 0-9.394 0-14.092 0-7.765 33.707-28.118 43.886-61.064 30.532-18.939-21.626-17.375-41.979 4.697-61.064 22.326-11.546 43.464-24.858 63.413-39.927 24.599-57.264 5.81-88.581-56.367-93.945-17.925 3.791-35.934 6.924-54.018 9.394-0.77 12.622 0.014 25.149 2.349 37.578 1.945 2.147 4.293 3.716 7.046 4.697 6.656-15.285 17.615-27.028 32.881-35.229 43.637-7.619 60.078 10.386 49.321 54.018-22.984 18.277-47.254 34.717-72.807 49.321-24.567 39.56-16.741 70.092 23.486 91.596z" />
<glyph unicode="&#xe91c;" horiz-adv-x="1071" d="M519.046 426.862c58.077 5.369 79.214-19.681 63.413-75.156-17.779-16.271-38.917-22.537-63.413-18.789 0 31.317 0 62.628 0 93.945z" />
</font>
</defs>
</svg>
