<?xml version="1.0" standalone="no"?>
<!DOCTYPE svg PUBLIC "-//W3C//DTD SVG 1.1//EN" "http://www.w3.org/Graphics/SVG/1.1/DTD/svg11.dtd" >
<svg xmlns="http://www.w3.org/2000/svg">
<metadata>Generated by IcoMoon</metadata>
<defs>
<font id="icomoon" horiz-adv-x="1024">
<font-face units-per-em="1024" ascent="960" descent="-64" />
<missing-glyph horiz-adv-x="1024" />
<glyph unicode="&#x20;" horiz-adv-x="512" d="" />
<glyph unicode="&#xe900;" horiz-adv-x="1071" d="M4.697 588.917c0 123.694 0 245.040 0 366.385 356.991 0 713.982 0 1070.972 0 0-341.333 0-682.667 0-1024-356.991 0-713.982 0-1070.972 0 0 218.422 0 436.844 0 657.615zM54.676 364.512c8.121-29.927 13.467-60.954 24.814-89.603 73.114-184.603 210.166-292.309 405.758-315.852 266.402-32.066 503.041 151.136 541.779 416.589 26.568 182.062-36.314 334.611-177.010 450.896-110.474 91.306-241.173 124.942-383.508 103.957-127.29-18.767-232.431-79.646-312.212-180.371-88.664-111.94-121.433-240.139-99.62-385.616z" />
<glyph unicode="&#xe901;" horiz-adv-x="1071" d="M54.001 366.477c-21.138 143.512 11.63 271.711 100.295 383.651 79.781 100.726 184.922 161.605 312.212 180.371 142.335 20.985 273.035-12.651 383.508-103.957 140.696-116.285 203.578-268.833 177.010-450.896-38.737-265.453-275.376-448.655-541.779-416.589-195.592 23.543-332.644 131.249-405.758 315.852-11.347 28.649-16.693 59.676-25.488 91.568zM493.216 377.045c0 0-1.199-1.237-4.108-3.501-15.138-15.638-30.275-31.276-47.497-49.623-6.517-6.27-13.034-12.539-22.199-19.893-20.165-20.664-40.33-41.329-62.409-64.715-4.767-4.63-9.535-9.261-17.027-14.967-17.098-17.578-34.196-35.156-53.412-55.506-3.397-3.166-6.794-6.333-12.766-10.681-15.251-15.398-30.503-30.797-45.735-46.176 161.781-159.584 456.337-177.301 643.164 16.003 193.416 200.12 149.585 488.401 5.346 626.396-56.661-54.941-113.278-109.839-171.898-167.468-9.587-9.377-19.174-18.754-31.401-29.287-17.031-17.498-34.062-34.995-53.17-55.23-4.967-4.743-9.934-9.485-17.489-15.395-18.525-19.010-37.051-38.020-57.67-59.748-6.536-6.316-13.073-12.632-21.576-19.475-1.581-2.108-3.163-4.216-6.521-9.011-6.080-5.961-12.16-11.922-20.487-18.182-1.455-0.761-2.314-1.951-2.211-3.625 0 0 0.034-0.37-0.935 0.085zM457.349 388.087c0 0-0.712-0.977 2.256 1.469 31.315 31.739 62.63 63.477 97.020 96.279 4.189 4.859 8.378 9.717 15.274 15.85 25.278 25.754 50.555 51.508 78.782 78.569 8.838 9.388 17.677 18.776 29.227 29.44 57.003 56.719 114.006 113.437 173.154 172.291-127.777 109.386-271.643 148.812-430.725 105.427-177.884-48.513-292.038-167.261-331.848-348.107-33.559-152.449 8.712-287.734 114.173-407.397 13.331 16.326 24.48 29.98 38.474 44.797 3.774 2.991 7.548 5.982 14.040 10.238 18.934 19.42 37.868 38.839 59.863 59.322 4.17 4.831 8.339 9.662 15.251 15.732 41.798 42.129 83.596 84.258 125.060 126.090z" />
<glyph unicode="&#xe902;" horiz-adv-x="1071" d="M647.731 578.948c-25.278-25.754-50.555-51.508-78.41-76.23-85.383 1.219-168.198 2.262-250.989 1.289-54.246-0.638-104.545-39.561-115.433-92.715-6.635-32.394-3.208-66.74-5.864-100.084-4.093-51.377 6.421-97.585 43.256-135.665-11.149-13.654-22.298-27.308-35.629-43.635-105.46 119.663-147.732 254.948-114.173 407.397 39.81 180.846 153.964 299.594 331.848 348.107 159.081 43.385 302.948 3.959 430.725-105.427-59.149-58.854-116.151-115.572-175.322-171.472-52.719 33.54-106.686 44.272-167.197 35.86-49.736-6.914-90.483-28.306-128.083-58.454-11.706-9.386-24.523-22.034-10.979-38.809 12.334-15.278 25.445-6.171 35.552 3.391 47.505 44.942 103.381 65.857 167.97 54.371 25.104-4.464 48.535-18.337 72.729-27.924z" />
<glyph unicode="&#xe903;" horiz-adv-x="1071" d="M706.678 589.643c56.617 54.898 113.234 109.796 169.895 164.737 144.239-137.995 188.070-426.275-5.346-626.396-186.827-193.303-481.382-175.587-643.164-16.003 15.232 15.379 30.484 30.777 48.077 45.472 16.687-3.827 31.019-9.601 45.377-9.666 148.48-0.671 296.967-0.883 445.447-0.224 69.745 0.309 124.21 55.525 125.408 125.287 0.577 33.594 0.331 67.208 0.085 100.81-0.56 76.639-54.843 130.298-131.996 130.73-46.094 0.258-92.187 0.496-138.281 0.743 17.031 17.498 34.062 34.995 53.601 52.013 6.812-3.35 10.774-7.623 15.497-8.774 7.82-1.905 21.142-5.075 23.229-1.883 4.929 7.54 6.615 18.719 5.65 28.014-0.567 5.454-8.732 10.12-13.479 15.14z" />
<glyph unicode="&#xe904;" horiz-adv-x="1071" d="M288.683 171.611c17.098 17.578 34.196 35.156 54.055 52.173 25.691-0.936 49.255-4.88 71.414-0.931 43.88 7.82 43.56 9.622 43.559 53.704 0 12.444 1.298 25.097-0.649 37.229-0.782 4.871-8.698 8.597-13.367 12.844 15.138 15.638 30.275 31.276 47.258 47.226 1.845 0.312 3.424 1.259 3.58-1.081 0.156-51.265 0.156-100.191 0.156-149.031 10.116 0 17.547 0 26.374 0 0 12.799 0 24.391 0 35.982 0 12.228 0 24.456 0 35.717 22.424 2.396 42.894 2.377 62.18 7.144 31.628 7.817 48.024 32.983 47.054 66.477-0.906 31.284-17.309 50.117-50.913 57.192-10.573 2.226-21.551 2.53-32.344 3.714 18.525 19.010 37.051 38.020 58.45 56.409 55.319-0.696 107.77-0.285 160.207-0.974 60.482-0.795 106.686-46.886 107.85-107.17 0.605-31.3 0.184-62.62 0.12-93.931-0.152-73.981-44.235-118.075-118.264-118.112-138.552-0.068-277.104-0.207-415.655 0.22-17.027 0.052-34.044 3.385-51.065 5.197zM685.514 423.507c-9.389-11.917-22.983-22.491-27.307-36.027-9.514-29.78 6.364-55.983 37.202-65.543 19.283-5.977 39.588-8.571 59.224-13.52 14.668-3.697 25.308-11.705 25.972-28.854 0.681-17.589-8.526-28.124-23.865-33.383-8.692-2.98-18.715-5.807-27.408-4.348-24.887 4.178-49.4 10.58-78.679 17.143 5.071-9.826 7.662-24.504 15.266-27.874 29.575-13.11 61.062-18.449 93.416-8.941 29.759 8.745 48.729 31.477 48.58 58.593-0.153 27.827-15.741 45.238-49.196 53.785-15.864 4.053-32.090 6.666-48.039 10.411-17.044 4.002-31.058 15.2-27.148 32.21 2.68 11.657 15.84 25.504 27.342 29.37 14.379 4.833 32.251 2.436 47.889-0.59 13.633-2.638 26.26-10.48 39.331-16.022 1.731 1.056 3.462 2.112 5.193 3.168-4.75 9.855-7.118 25.43-14.664 28.573-32.18 13.401-65.977 19.331-103.108 1.85z" />
<glyph unicode="&#xe905;" horiz-adv-x="1071" d="M553.549 484.772c-31.315-31.739-62.63-63.477-95.517-94.277 4.048 19.731-3.166 30.462-22.079 34.436-11.364 2.388-22.431 6.401-33.866 8.2-45.115 7.097-87.371-11.223-106.921-45.699-22.276-39.283-18.799-104.031 7.602-135.059 2.749-3.23 7.425-4.821 11.207-7.172-18.934-19.42-37.868-38.839-58.357-57.246-21.783 25.020-39.474 50.197-39.474 83.5 0.001 36.655-0.838 73.334 0.222 109.958 1.634 56.438 47.027 102.894 103.262 103.688 77.956 1.101 155.944-0.109 233.919-0.329z" />
<glyph unicode="&#xe906;" horiz-adv-x="1071" d="M287.624 170.225c18.081-0.427 35.098-3.759 52.124-3.812 138.55-0.427 277.103-0.289 415.655-0.22 74.029 0.037 118.112 44.131 118.264 118.112 0.064 31.311 0.485 62.632-0.12 93.931-1.164 60.285-47.368 106.376-107.85 107.17-52.437 0.689-104.888 0.278-158.913 1.557 3.386 5.947 8.354 10.689 14.359 16.801 47.132 1.122 93.226 0.884 139.32 0.626 77.153-0.432 131.437-54.090 131.996-130.73 0.245-33.602 0.492-67.216-0.085-100.81-1.198-69.762-55.663-124.978-125.408-125.287-148.48-0.659-296.967-0.447-445.447 0.224-14.358 0.065-28.691 5.839-44.090 10.257 2.342 4.461 5.739 7.628 10.196 12.179z" />
<glyph unicode="&#xe907;" horiz-adv-x="1071" d="M649.206 579.601c-25.668 8.934-49.099 22.807-74.203 27.271-64.589 11.486-120.465-9.429-167.97-54.371-10.107-9.562-23.218-18.669-35.552-3.391-13.543 16.775-0.727 29.423 10.979 38.809 37.6 30.148 78.346 51.54 128.083 58.454 60.511 8.412 114.478-2.32 165.841-36.498-8.027-10.846-16.865-20.234-27.178-30.275z" />
<glyph unicode="&#xe908;" horiz-adv-x="1071" d="M457.684 388.383c-41.798-42.129-83.596-84.258-127.487-125.542-26.108 30.178-27.734 63.581-17.936 98.031 8.9 31.292 33.578 51.725 65.771 48.569 26.979-2.645 53.133-13.717 79.652-21.058z" />
<glyph unicode="&#xe909;" horiz-adv-x="1071" d="M555.087 485.304c-79.512-0.311-157.501 0.898-235.457-0.203-56.235-0.794-101.629-47.25-103.262-103.688-1.060-36.624-0.222-73.304-0.222-109.958-0.001-33.303 17.69-58.48 38.115-84.132-3.578-4.636-7.352-7.627-12.548-11.199-38.258 37.499-48.771 83.707-44.678 135.084 2.656 33.344-0.771 67.69 5.864 100.084 10.887 53.154 61.187 92.077 115.433 92.715 82.792 0.973 165.607-0.070 249.637-1.926-2.965-6.528-7.154-11.386-12.881-16.777z" />
<glyph unicode="&#xe90a;" horiz-adv-x="1071" d="M545.992 428.612c11.84 0.175 22.818-0.129 33.391-2.355 33.604-7.075 50.007-25.908 50.913-57.192 0.97-33.494-15.425-58.66-47.054-66.477-19.286-4.767-39.756-4.748-62.18-7.144 0-11.261 0-23.489 0-35.717 0-11.592 0-23.183 0-35.982-8.826 0-16.258 0-26.374 0 0 48.84 0 97.766-0.001 149.426-0.001 2.734-0.505 3.42-0.505 3.42s-0.034 0.37 1.059 0.011c1.85 1.188 2.607 2.735 3.365 4.282 6.080 5.961 12.16 11.922 20.248 17.625 2.008-25.676 2.008-51.094 2.008-77.932 17.043 0.788 31.148 0.143 44.792 2.347 26.442 4.272 39.396 20.134 38.472 44.438-0.849 22.312-15.605 35.775-42.153 38.187-12.196 1.108-24.425 1.849-36.638 2.756 6.536 6.316 13.073 12.632 20.656 20.308z" />
<glyph unicode="&#xe90b;" horiz-adv-x="1071" d="M457.516 388.235c-26.352 7.489-52.505 18.561-79.484 21.206-32.194 3.157-56.871-17.277-65.771-48.569-9.799-34.449-8.172-67.852 16.564-98.65-3.448-6.296-7.618-11.127-13.318-16.489-5.312 1.82-9.989 3.41-12.737 6.64-26.401 31.028-29.878 95.776-7.602 135.059 19.55 34.476 61.806 52.796 106.921 45.699 11.434-1.799 22.502-5.812 33.866-8.2 18.913-3.974 26.127-14.705 20.595-35.66 0.088-2.163 0.8-1.185 0.968-1.037z" />
<glyph unicode="&#xe90c;" horiz-adv-x="1071" d="M524.353 408.041c13.198-0.644 25.427-1.385 37.622-2.493 26.548-2.411 41.304-15.875 42.153-38.187 0.924-24.304-12.030-40.166-38.472-44.438-13.644-2.204-27.749-1.559-44.792-2.347 0 26.838 0 52.255-1.119 79.275 0.462 3.71 2.043 5.818 4.608 8.19z" />
<glyph unicode="&#xe90d;" horiz-adv-x="1071" d="M442.653 325.275c5.711-2.892 13.627-6.618 14.409-11.489 1.947-12.132 0.649-24.785 0.649-37.229 0.001-44.083 0.322-45.885-43.559-53.704-22.158-3.949-45.723-0.005-70.051 1.469 3.368 5.73 8.136 10.36 15.853 16.702 19.909 2.381 37.037 1.881 53.745 4.292 6.746 0.974 18.282 9.024 17.833 12.635-1.964 15.793 11.32 35.329-9.472 47.16 6.517 6.27 13.034 12.539 20.593 20.164z" />
<glyph unicode="&#xe90e;" horiz-adv-x="1071" d="M420.736 304.57c22.116-11.289 8.832-30.825 10.796-46.618 0.449-3.61-11.087-11.661-17.833-12.635-16.708-2.411-33.836-1.911-52.788-2.931 18.172 20.313 38.337 40.978 59.825 62.184z" />
<glyph unicode="&#xe90f;" horiz-adv-x="1071" d="M705.677 588.278c5.749-3.655 13.914-8.32 14.481-13.775 0.965-9.296-0.721-20.474-5.65-28.014-2.087-3.192-15.409-0.021-23.229 1.883-4.723 1.15-8.685 5.423-14.177 9.351 8.399 10.435 17.986 19.812 28.575 30.555z" />
<glyph unicode="&#xe910;" horiz-adv-x="1071" d="M497.484 380.734c0.366-1.398-0.391-2.945-2.425-4.106-1.012 2.006-0.153 3.196 2.425 4.106z" />
<glyph unicode="&#xe911;" horiz-adv-x="1071" d="M493.7 376.817c0.484-0.227 0.988-0.913 0.833-1.308s-1.735-1.341-2.125-0.521c-0.39 0.82 0.808 2.057 1.292 1.829z" />
<glyph unicode="&#xe912;" horiz-adv-x="1071" d="M687.197 424.213c35.449 16.776 69.246 10.846 101.426-2.555 7.546-3.142 9.914-18.717 14.664-28.573-1.731-1.056-3.462-2.112-5.193-3.168-13.071 5.543-25.698 13.385-39.331 16.022-15.639 3.026-33.51 5.423-47.889 0.59-11.501-3.866-24.662-17.713-27.342-29.37-3.91-17.009 10.104-28.208 27.148-32.21 15.949-3.745 32.176-6.358 48.039-10.411 33.454-8.548 49.042-25.958 49.196-53.785 0.149-27.116-18.82-49.848-48.58-58.593-32.354-9.507-63.842-4.168-93.416 8.941-7.604 3.37-10.195 18.049-15.266 27.874 29.28-6.563 53.793-12.965 78.679-17.143 8.693-1.459 18.716 1.368 27.408 4.348 15.339 5.259 24.545 15.794 23.865 33.383-0.664 17.149-11.304 25.157-25.972 28.854-19.636 4.949-39.941 7.543-59.224 13.52-30.839 9.56-46.717 35.762-37.202 65.543 4.324 13.535 17.918 24.109 28.99 36.732z" />
<glyph unicode="&#xe913;" horiz-adv-x="1071" d="M601.248-68.697c-200.416 0-398.483 0-596.55 0 0 341.333 0 682.667 0 1024 356.991 0 713.982 0 1070.972 0 0-341.333 0-682.666 0-1024-157.358 0-314.716 0-474.422 0zM992.795 289.415c26.319 76.179 33.921 154.172 18.963 233.408-47.787 253.137-266.071 416.098-522.563 391.022-277.053-27.086-471.494-299.456-412.78-571.963 40.134-186.274 229.787-382.491 455.627-363.915 38.042 3.129 77.887-4.194 114.39 4.212 168.807 38.872 283.272 142.1 346.364 307.236z" />
<glyph unicode="&#xe914;" horiz-adv-x="1071" d="M992.239 287.654c-62.537-163.374-177.001-266.603-345.809-305.475-36.502-8.406-76.348-1.083-114.39-4.212-225.84-18.576-415.492 177.641-455.627 363.915-58.714 272.507 135.727 544.877 412.78 571.963 256.493 25.076 474.776-137.885 522.563-391.022 14.958-79.236 7.356-157.229-19.519-235.17zM664.661 147.327c34.442 0.014 68.894-0.519 103.322 0.157 68.659 1.348 123.080 55.748 124.381 124.386 0.682 35.994 0.692 72.023-0.003 108.016-1.326 68.636-55.819 123.928-124.405 124.27-148.722 0.741-297.452 0.743-446.174-0.001-68.563-0.343-123.086-55.742-124.408-124.298-0.634-32.864-0.22-65.75-0.12-98.626 0.245-80.241 53.727-133.784 133.948-133.873 109.587-0.121 219.175-0.031 333.459-0.031zM682.018 710.766c-58.826 19.859-118.173 30.421-180.832 19.534-68.359-11.877-127.277-40.675-177.552-87.976-10.499-9.878-22.386-19.995-6.634-34.441 13.496-12.377 25.599-7.537 37.361 4.155 89.111 88.585 230.179 104.762 339.503 45.382 25.276-13.729 47.029-33.919 70.515-50.983 10.067-7.314 20.821-8.483 29.222 1.699 8.968 10.869 5.112 20.28-4.318 30.329-29.478 31.414-65.62 52.506-107.267 72.301zM643.5 628.863c-28.682 7.041-57.115 18.587-86.096 20.186-60.451 3.335-115.995-13.125-163.652-53.267-26.11-21.993-34.912-35.592-22.149-46.667 22.561-19.577 33.74 3.52 47.501 15.060 37.726 31.635 82.827 48.181 130.31 46.809 53.545-1.548 101.016-25.184 141.615-61.611 5.127-4.6 16.988-1.697 25.729-2.27 0.367 10.311 5.19 25.976 0.338 30.014-22.038 18.339-46.802 33.401-73.596 51.747z" />
<glyph unicode="&#xe915;" horiz-adv-x="1071" d="M662.312 147.327c-111.936 0-221.523-0.091-331.111 0.031-80.221 0.089-133.702 53.632-133.948 133.873-0.1 32.876-0.514 65.762 0.12 98.626 1.322 68.556 55.846 123.955 124.408 124.298 148.722 0.745 297.452 0.743 446.174 0.001 68.586-0.342 123.079-55.634 124.405-124.27 0.695-35.994 0.685-72.022 0.003-108.016-1.301-68.638-55.722-123.038-124.381-124.386-34.428-0.676-68.881-0.143-105.671-0.157zM368.775 166.181c130.586 0.001 261.173-0.164 391.759 0.071 67.376 0.121 112.735 45.978 113.104 113.691 0.179 32.841 0.547 65.694-0.096 98.524-1.159 59.195-46.848 106.465-105.64 106.775-148.567 0.785-297.144 0.749-445.711 0.025-57.945-0.282-104.202-46.517-105.834-104.128-1.040-36.722-0.916-73.515-0.024-110.244 1.173-48.284 33.133-89.407 80.327-100.115 21.711-4.926 44.915-3.271 72.114-4.599z" />
<glyph unicode="&#xe916;" horiz-adv-x="1071" d="M683.667 709.907c39.997-18.936 76.139-40.028 105.617-71.442 9.43-10.049 13.285-19.46 4.318-30.329-8.401-10.182-19.155-9.012-29.222-1.699-23.486 17.063-45.239 37.254-70.515 50.983-109.325 59.38-250.392 43.203-339.503-45.382-11.762-11.692-23.865-16.532-37.361-4.155-15.752 14.446-3.865 24.563 6.634 34.441 50.274 47.301 109.193 76.099 177.552 87.976 62.658 10.887 122.006 0.326 182.481-20.393z" />
<glyph unicode="&#xe917;" horiz-adv-x="1071" d="M645.005 627.811c25.288-17.293 50.053-32.356 72.090-50.695 4.853-4.038 0.030-19.703-0.338-30.014-8.741 0.573-20.601-2.331-25.729 2.27-40.6 36.427-88.071 60.063-141.615 61.611-47.484 1.373-92.584-15.174-130.31-46.809-13.761-11.54-24.94-34.636-47.501-15.060-12.763 11.075-3.961 24.674 22.149 46.667 47.658 40.143 103.201 56.602 163.652 53.267 28.982-1.599 57.415-13.145 87.602-21.238z" />
<glyph unicode="&#xe918;" horiz-adv-x="1071" d="M366.439 166.181c-24.863 1.329-48.067-0.327-69.778 4.599-47.194 10.708-79.155 51.831-80.327 100.115-0.892 36.73-1.016 73.522 0.024 110.244 1.632 57.611 47.889 103.846 105.834 104.128 148.568 0.724 297.144 0.76 445.711-0.025 58.792-0.31 104.481-47.581 105.64-106.775 0.642-32.83 0.275-65.683 0.096-98.524-0.369-67.713-45.728-113.57-113.104-113.691-130.586-0.235-261.173-0.070-394.095-0.071zM410.844 302.353c6.827-0.309 13.654-0.619 22.056-1 0-14.41 0.614-27.571-0.338-40.618-0.327-4.485-3.472-10.549-7.185-12.728-40.471-23.743-102.254-0.921-113.308 44.194-5.174 21.115-4.564 45.116-0.526 66.677 6.082 32.478 33.028 52.991 66.314 50.82 26.181-1.708 51.959-9.592 78.275-14.804 5.308 16.108-3.216 24.293-20.19 29.897-58.040 19.164-113.328 6.091-138.535-34.017-26.323-41.883-21.286-111.849 11.512-144.489 36.008-35.836 89.26-35.018 139.289-12.143 3.876 1.772 8.115 7.772 8.234 11.92 0.748 26.179 0.379 52.389 0.379 78.263-27.606 0-52.162 0-77.875 0 0.878-8.232 1.576-14.768 2.345-21.973 9.523 0 17.283 0 29.554 0zM657.369 386.793c-1.997-41.811 9.834-57.724 50.995-67.96 17.323-4.308 35.697-5.977 51.802-12.971 8.886-3.859 18.649-15.769 19.638-24.952 1.019-9.461-5.876-22.55-13.498-29.368-7.288-6.519-20.319-10.495-30.202-9.485-26.452 2.705-52.568 8.684-81.127 13.773 1.527-5.9 0.893-18.391 6.62-23.030 27.401-22.194 96.867-19.471 124.106 3.414 16.705 14.035 24.667 31.973 20.79 54.121-3.782 21.604-17.421 34.603-37.705 40.392-17.18 4.903-34.768 8.413-52.239 12.252-20.136 4.424-36.857 13.551-34.112 36.974 2.673 22.812 21.442 31.392 41.201 29.732 24.914-2.094 49.415-9.105 74.859-14.146 5.42 15.393 0.070 27.113-21.212 30.435-11.497 1.795-22.617 6.101-34.125 7.704-38.083 5.303-68.182-10.241-85.791-46.885zM621.648 398.813c-33.585 44.783-81.323 26.053-124.295 30.444 0-70.19 0-137.675 0-205.577 8.016 0 14.624 0 23.448 0 0 24.832 0 48.61 0 72.033 97.387 10.277 124.705 37.339 100.847 103.1z" />
<glyph unicode="&#xe919;" horiz-adv-x="1071" d="M408.589 302.353c-10.016 0-17.776 0-27.299 0-0.769 7.204-1.466 13.74-2.345 21.973 25.713 0 50.269 0 77.875 0 0-25.874 0.369-52.085-0.379-78.263-0.118-4.148-4.358-10.148-8.234-11.92-50.029-22.875-103.28-23.693-139.289 12.143-32.798 32.641-37.836 102.606-11.512 144.489 25.207 40.108 80.495 53.181 138.535 34.017 16.974-5.605 25.498-13.789 20.19-29.897-26.315 5.212-52.093 13.096-78.275 14.804-33.286 2.171-60.232-18.342-66.314-50.82-4.038-21.56-4.648-45.561 0.526-66.677 11.054-45.115 72.837-67.938 113.308-44.194 3.714 2.179 6.858 8.243 7.185 12.728 0.952 13.047 0.338 26.208 0.338 40.618-8.402 0.381-15.229 0.69-24.311 1z" />
<glyph unicode="&#xe91a;" horiz-adv-x="1071" d="M657.702 388.693c17.275 34.745 47.374 50.289 85.457 44.986 11.509-1.603 22.628-5.909 34.125-7.704 21.282-3.322 26.632-15.042 21.212-30.435-25.444 5.041-49.944 12.052-74.859 14.146-19.759 1.66-38.528-6.92-41.201-29.732-2.745-23.423 13.976-32.549 34.112-36.974 17.471-3.839 35.059-7.348 52.239-12.252 20.284-5.789 33.923-18.788 37.705-40.392 3.877-22.148-4.085-40.086-20.79-54.121-27.239-22.885-96.705-25.608-124.106-3.414-5.727 4.639-5.093 17.13-6.62 23.030 28.558-5.089 54.675-11.068 81.127-13.773 9.883-1.011 22.914 2.966 30.202 9.485 7.622 6.818 14.516 19.906 13.498 29.368-0.989 9.183-10.752 21.093-19.638 24.952-16.105 6.994-34.478 8.663-51.802 12.971-41.16 10.236-52.992 26.149-50.661 69.859z" />
<glyph unicode="&#xe91b;" horiz-adv-x="1071" d="M622.778 397.345c22.728-64.292-4.59-91.354-101.976-101.631 0-23.423 0-47.201 0-72.033-8.824 0-15.432 0-23.448 0 0 67.902 0 135.386 0 205.577 42.971-4.391 90.71 14.339 125.424-31.912zM604.49 372.905c-12.204 31.237-39.004 40.681-82.929 29.447 0-26.401 0-52.698 0-78.832 58.152-8.154 79.432 3.716 82.929 49.386z" />
<glyph unicode="&#xe91c;" horiz-adv-x="1071" d="M604.637 371.092c-3.644-43.857-24.924-55.727-83.076-47.573 0 26.134 0 52.432 0 78.832 43.925 11.234 70.725 1.79 83.076-31.26z" />
<glyph unicode="&#xe91d;" horiz-adv-x="1071" d="M634.128-68.697c-211.376 0-420.404 0-629.431 0 0 341.333 0 682.667 0 1024 356.991 0 713.982 0 1070.972 0 0-341.333 0-682.666 0-1024-146.398 0-292.795 0-441.541 0zM1018.959 458.531c-2.949 21.188-6.17 42.343-8.797 63.572-7.842 63.369-29.651 122.3-64.221 175.103-52.965 80.9-122.179 144.268-212.401 183.329-93.652 40.546-190.908 50.996-289.73 30.777-107.563-22.007-197.921-76.162-268.048-162.18-91.023-111.65-127.203-239.557-104.177-380.846 18.831-115.543 74.43-213.335 166.396-288.16 104.879-85.331 223.578-123.823 359.421-107.232 127.561 15.579 230.911 75.57 312.898 171.565 75.519 88.421 105.49 194.946 108.657 314.073z" />
<glyph unicode="&#xe91e;" horiz-adv-x="1071" d="M1019.106 456.382c-3.315-116.979-33.286-223.503-108.805-311.924-81.987-95.995-185.338-155.986-312.898-171.565-135.842-16.591-254.542 21.901-359.421 107.232-91.966 74.825-147.566 172.617-166.396 288.16-23.027 141.289 13.153 269.197 104.177 380.846 70.127 86.018 160.485 140.173 268.048 162.18 98.822 20.219 196.077 9.769 289.73-30.777 90.221-39.061 159.436-102.428 212.401-183.329 34.569-52.803 56.378-111.734 64.221-175.103 2.627-21.228 5.847-42.383 8.944-65.72zM799.743 152.021c62.703 22.243 92.613 64.375 92.766 130.838 0.074 32.063 0.444 64.135-0.102 96.189-1.189 69.756-55.905 124.893-125.817 125.173-147.803 0.59-295.611 0.59-443.413 0-69.904-0.279-124.673-55.467-125.831-125.172-0.533-32.055-0.164-64.126-0.096-96.189 0.174-82.015 53.086-135.436 134.513-135.5 141.549-0.11 283.097-0.132 424.645 0.139 13.163 0.025 26.322 2.415 43.334 4.522zM845.943 669.217c19.664 10.476 16.044 24.67 4.691 38.181-6.827 8.124-16.424 13.898-24.667 20.858-102.658 86.687-220.311 118.998-352.495 95.284-83.844-15.042-156.91-52.061-217.902-112.387-11.64-11.513-17.353-25.465-7.901-36.833 10.802-12.99 25.375-4.53 36.919 4.494 1.834 1.434 3.342 3.283 5.018 4.923 60.514 59.235 134.53 92.844 217.163 101.47 109.754 11.457 209.174-18.078 293.803-91.941 11.899-10.386 27.653-16.356 45.371-24.049zM775.039 652.364c-78.335 64.668-166.752 92.678-268.706 78.131-71.31-10.174-131.594-40.482-183.638-89.055-10.127-9.451-20.415-19.409-6.217-33.024 13.592-13.034 25.731-7.147 37.973 3.565 13.894 12.158 27.903 24.545 43.376 34.475 61.476 39.454 128.107 52.37 200.921 41.953 56.244-8.047 104.338-30.4 146.366-67.287 13.962-12.254 29.686-30.189 46.735-14.515 19.369 17.807-2.919 30.777-16.81 45.756zM399.999 546.8c4.109 3.525 8.218 7.050 12.327 10.576 55.468 47.602 118.517 67.82 188.788 42.195 32.254-11.762 60.401-34.606 90.859-51.624 5.929-3.313 16.294-6.3 20.4-3.423 5.732 4.015 9.759 13.546 10.223 20.983 0.345 5.545-4.97 12.755-9.708 17.108-71.283 65.488-154.002 84.582-245.127 52.948-31.757-11.024-60.431-32.244-88.491-51.721-7.438-5.163-7.376-21.133-10.757-32.141 9.337-1.91 18.674-3.821 31.487-4.902z" />
<glyph unicode="&#xe91f;" horiz-adv-x="1071" d="M797.817 151.614c-15.087-1.699-28.245-4.090-41.408-4.115-141.548-0.271-283.097-0.249-424.645-0.139-81.427 0.063-134.339 53.485-134.513 135.5-0.068 32.063-0.437 64.134 0.096 96.189 1.159 69.705 55.927 124.893 125.831 125.172 147.803 0.59 295.611 0.59 443.413 0 69.912-0.279 124.629-55.417 125.817-125.173 0.546-32.054 0.176-64.126 0.102-96.189-0.153-66.463-30.063-108.596-94.692-131.246zM462.679 166.18c100.986 0.005 201.975-0.427 302.958 0.18 60.49 0.363 106.842 46.898 107.908 107.238 0.608 34.434 0.52 68.894 0.025 103.332-0.887 61.658-47.25 108.284-109.092 108.475-146.39 0.453-292.783 0.452-439.173 0.001-61.838-0.191-108.207-46.807-109.117-108.458-0.496-33.655-0.422-67.327-0.021-100.984 0.751-63.060 47.040-109.14 110.297-109.701 43.836-0.389 87.678-0.079 136.214-0.082z" />
<glyph unicode="&#xe920;" horiz-adv-x="1071" d="M844.068 669.056c-15.844 7.853-31.597 13.823-43.497 24.209-84.628 73.863-184.049 103.398-293.803 91.941-82.633-8.626-156.65-42.235-217.163-101.47-1.675-1.64-3.184-3.489-5.018-4.923-11.544-9.024-26.117-17.485-36.919-4.494-9.453 11.368-3.739 25.32 7.901 36.833 60.992 60.327 134.058 97.345 217.902 112.387 132.184 23.715 249.838-8.597 352.495-95.284 8.242-6.96 17.84-12.734 24.667-20.858 11.353-13.51 14.973-27.705-6.565-38.341z" />
<glyph unicode="&#xe921;" horiz-adv-x="1071" d="M776.248 651.155c12.682-13.769 34.97-26.74 15.6-44.547-17.049-15.674-32.774 2.26-46.735 14.515-42.028 36.887-90.122 59.24-146.366 67.287-72.815 10.418-139.446-2.499-200.921-41.953-15.472-9.93-29.482-22.317-43.376-34.475-12.242-10.712-24.38-16.599-37.973-3.565-14.197 13.615-3.909 23.572 6.217 33.024 52.044 48.573 112.328 78.88 183.638 89.055 101.954 14.546 190.371-13.463 269.916-79.34z" />
<glyph unicode="&#xe922;" horiz-adv-x="1071" d="M398.261 546.385c-11.075 1.496-20.412 3.406-29.749 5.317 3.381 11.008 3.319 26.978 10.757 32.141 28.060 19.476 56.734 40.696 88.491 51.721 91.125 31.634 173.844 12.54 245.127-52.948 4.738-4.353 10.054-11.563 9.708-17.108-0.463-7.438-4.491-16.968-10.223-20.983-4.106-2.876-14.471 0.111-20.4 3.423-30.457 17.017-58.605 39.862-90.859 51.624-70.271 25.626-133.319 5.407-188.788-42.195-4.109-3.526-8.218-7.051-14.065-10.991z" />
<glyph unicode="&#xe923;" horiz-adv-x="1071" d="M460.33 166.18c-46.188 0.003-90.030-0.307-133.865 0.082-63.258 0.561-109.546 46.641-110.297 109.701-0.401 33.657-0.475 67.329 0.021 100.984 0.909 61.651 47.278 108.267 109.117 108.458 146.39 0.451 292.783 0.452 439.173-0.001 61.841-0.191 108.205-46.817 109.092-108.475 0.495-34.438 0.584-68.898-0.025-103.332-1.066-60.34-47.418-106.875-107.908-107.238-100.983-0.607-201.972-0.174-305.307-0.18zM340.633 225.826c35.799-14.349 70.394-7.23 104.144 6.899 5.113 2.141 11.149 9.453 11.386 14.62 1.171 25.462 0.532 51.008 0.532 76.842-27.198 0-51.657 0-75.875 0 0-7.697 0-13.674 0-22.485 17.769 0 34.459 0 52.007 0 0-14.544 1.262-26.438-0.504-37.863-0.961-6.217-5.759-14.609-11.061-16.943-38.518-16.957-84.093-3.123-102.989 30.044-21.968 38.559-13.994 97.141 18.296 119.752 10.837 7.589 26.101 13.677 38.802 12.783 26.576-1.871 52.794-8.84 80.39-13.943 4.744 12.517 0.763 23.549-16.791 27.935-10.55 2.636-21.136 5.176-31.792 7.328-55.339 11.175-102.859-12.441-119.261-60.624-15.491-45.51-9.434-119.357 52.716-144.345zM661.318 397.547c-12.57-40.998 1.507-66.808 42.796-77.559 18.777-4.889 38.636-6.857 56.313-14.213 8.794-3.66 18.328-16.050 19.211-25.287 0.905-9.46-6.123-22.435-13.802-29.166-7.362-6.452-20.389-10.329-30.272-9.265-26.437 2.848-52.522 8.954-81.688 14.305 2.368-7.142 2.569-19.328 8.532-23.757 27.572-20.48 90.308-19.552 118.496 0.039 18.721 13.012 28.751 30.903 26.118 54.048-2.676 23.529-16.679 38.243-39.23 44.283-19.539 5.233-39.435 9.122-59.019 14.2-15.932 4.132-26.398 14.267-26.752 31.326-0.367 17.68 11.667 26.503 26.824 31.211 6.559 2.037 14.138 3.582 20.689 2.35 22.963-4.317 45.681-9.94 71.626-15.771-2.892 8.827-3.314 22.748-8.993 25.396-36.951 17.233-99.421 26.774-130.849-22.141zM623.879 335.751c14.226 41.402 3.962 76.291-30.808 85.39-30.58 8.002-63.426 7.345-95.358 10.52 0-73.371 0-140.308 0-207.64 8.016 0 14.555 0 23.827 0 0 25.128 0 48.859 0 72.994 39.077 1.297 77.422-2.354 102.339 38.736z" />
<glyph unicode="&#xe924;" horiz-adv-x="1071" d="M338.867 226.395c-60.385 24.419-66.442 98.266-50.95 143.776 16.401 48.183 63.922 71.799 119.261 60.624 10.657-2.152 21.243-4.692 31.792-7.328 17.554-4.386 21.535-15.418 16.791-27.935-27.596 5.103-53.814 12.071-80.39 13.943-12.701 0.894-27.964-5.194-38.802-12.783-32.29-22.611-40.264-81.194-18.296-119.752 18.897-33.168 64.471-47.001 102.989-30.044 5.302 2.334 10.1 10.726 11.061 16.943 1.766 11.425 0.504 23.319 0.504 37.863-17.548 0-34.239 0-52.007 0 0 8.811 0 14.788 0 22.485 24.218 0 48.676 0 75.875 0 0-25.834 0.639-51.38-0.532-76.842-0.238-5.167-6.273-12.479-11.386-14.62-33.75-14.129-68.344-21.248-105.909-6.329z" />
<glyph unicode="&#xe925;" horiz-adv-x="1071" d="M662.091 399.241c30.656 47.221 93.125 37.68 130.076 20.448 5.679-2.648 6.101-16.569 8.993-25.396-25.945 5.831-48.663 11.454-71.626 15.771-6.551 1.232-14.13-0.312-20.689-2.35-15.157-4.708-27.191-13.531-26.824-31.211 0.354-17.060 10.82-27.195 26.752-31.326 19.584-5.079 39.48-8.967 59.019-14.2 22.551-6.040 36.554-20.754 39.23-44.283 2.633-23.145-7.397-41.036-26.118-54.048-28.188-19.592-90.924-20.519-118.496-0.039-5.963 4.429-6.164 16.614-8.532 23.757 29.166-5.351 55.252-11.457 81.688-14.305 9.883-1.065 22.911 2.812 30.272 9.265 7.68 6.731 14.707 19.706 13.802 29.166-0.883 9.236-10.418 21.627-19.211 25.287-17.677 7.356-37.536 9.324-56.313 14.213-41.289 10.751-55.366 36.561-42.024 79.253z" />
<glyph unicode="&#xe926;" horiz-adv-x="1071" d="M622.875 334.208c-23.913-39.547-62.258-35.895-101.335-37.193 0-24.135 0-47.866 0-72.994-9.272 0-15.811 0-23.827 0 0 67.332 0 134.269 0 207.64 31.933-3.176 64.779-2.518 95.358-10.52 34.77-9.099 45.034-43.987 29.804-86.933zM571.737 404.573c-16.744 0-33.488 0-49.651 0 0-28.983 0-55.24 0-81.277 50.406-6.214 72.301 1.84 80.559 28.949 7.077 23.233-1.362 39.302-30.908 52.328z" />
<glyph unicode="&#xe927;" horiz-adv-x="1071" d="M573.663 404.168c27.62-12.621 36.059-28.689 28.982-51.922-8.258-27.108-30.152-35.162-80.559-28.949 0 26.037 0 52.294 0 81.277 16.163 0 32.907 0 51.576-0.406z" />
</font>
</defs>
</svg>
